Kimi no Na wa (Your Name ) [Nootky] [720p] [English Subtitles]

Technical Details

Size 1.03 Gb
Seed 112
Leach 7
Hash BF45405CC5BDA07E0816D9DF7F0BAE2A66FB1CD4
Added 1 y ago

Vote for Torrent

 Like 0  Dislike 0

Torrent Health

94 %

Files

 or selectively click on the files tree

Trackers

udp://tracker.opentrackr.org:1337/announce
http://pow7.com/announce
udp://eddie4.nl:6969/announce

Add Comment

Comments

There are no comments yet. Be first.

Please Share

Description

Thanks Jack Rabbit :)

Audio Track is mislabled as English, it's actually Japanese. (not my doing)

*******************************************************************************
Kimi no Na wa - Your Name
*******************************************************************************
{Subs}
Hardcoded - English


{Info}
x265 10bit encode maybe soon if you wish to wait for that in the coming days, I can't promise it tho. Slightly smaller size expected.

Check my previous anime uploads on ET or KAT to see expected changes in quality.

If it doesn't turn out to my liking it won't be uploaded tho.



{Screens}




-------------------------------------------------------------------------------
General Information
-------------------------------------------------------------------------------

StuffType.................: Anime
File Validation......: SFV
Image Format.........: MP4
Image Created with...: Nul



Video Format.........: AVC
Video Bitrate........: 1 187 kb/s
Resolution...........: 1280x720
Color................: 8bit
FPS..................: 29.970
Source...............: Web
Original Format......: MP4
Genre................: Supernatural, Drama, Romance, School
IMDb Rating..........: 9.34
Movie Information....: http://myanimelist.net/anime/32281/Kimi_no_Na_wa

-------------------------------------------------------------------------------
Release Notes
-------------------------------------------------------------------------------
[code]
Video
ID : 1
Format : AVC
Format/Info : Advanced Video Codec
Format profile : [email protected]
Format settings, CABAC : Yes
Format settings, ReFrames : 1 frame
Format settings, GOP : M=1, N=60
Codec ID : avc1
Codec ID/Info : Advanced Video Coding
Duration : 1 h 46 min
Bit rate : 1 187 kb/s
Maximum bit rate : 6 623 kb/s
Width : 1 280 pixels
Height : 720 pixels
Display aspect ratio : 16:9
Frame rate mode : Constant
Frame rate : 29.970 (30000/1001) FPS
Color space : YUV
Chroma subsampling : 4:2:0
Bit depth : 8 bits
Scan type : Progressive
Bits/(Pixel*Frame) : 0.043
Stream size : 904 MiB (86%)
Tagged date : UTC 2017-02-02 01:20:34
Color range : Limited
Color primaries : BT.709
Transfer characteristics : BT.709
Matrix coefficients : BT.709
[/code]
[code]
Audio
ID : 2
Format : AAC
Format/Info : Advanced Audio Codec
Format profile : LC
Codec ID : 40
Duration : 1 h 46 min
Bit rate mode : Variable
Bit rate : 192 kb/s
Maximum bit rate : 201 kb/s
Channel(s) : 2 channels
Channel positions : Front: L R
Sampling rate : 44.1 kHz
Frame rate : 43.066 FPS (1024 spf)
Compression mode : Lossy
Stream size : 146 MiB (14%)
Title : IsoMedia File Produced by Google, 5-11-2011
Language : English
Encoded date : UTC 2017-02-02 01:19:16
Tagged date : UTC 2017-02-02 01:20:34
[/code]